<?xml version="1.0" standalone="no"?>
<!DOCTYPE svg PUBLIC "-//W3C//DTD SVG 1.1//EN" "http://www.w3.org/Graphics/SVG/1.1/DTD/svg11.dtd" >
<svg xmlns="http://www.w3.org/2000/svg">
<metadata>Generated by IcoMoon</metadata>
<defs>
<font id="icons" horiz-adv-x="1024">
<font-face units-per-em="1024" ascent="960" descent="-64" />
<missing-glyph horiz-adv-x="1024" />
<glyph unicode="&#x20;" horiz-adv-x="512" d="" />
<glyph unicode="&#xe900;" glyph-name="behance" d="M296.96 768.832c30.080 0 57.344-2.56 82.176-8 24.704-5.248 45.76-13.952 63.616-25.984 17.536-11.968 31.36-27.904 41.088-48 9.6-19.84 14.464-44.608 14.464-73.92 0-31.68-7.232-58.24-21.632-79.36-14.464-21.12-35.84-38.528-64.256-51.968 38.784-11.136 67.456-30.72 86.528-58.624 19.2-28.16 28.48-62.080 28.48-101.12 0-32-5.76-59.52-17.92-82.56-12.16-23.68-28.8-42.88-49.92-57.6-20.48-14.72-44.8-25.6-71.68-32.64-26.24-7.040-53.76-10.88-81.92-10.88h-305.984v630.464h296.96zM725.12 248.32c18.752-18.304 45.888-27.52 81.024-27.52 25.216 0 47.104 6.4 65.408 19.2 18.176 12.608 29.184 26.24 33.472 40.32h110.72c-17.28-54.848-44.8-94.080-81.28-117.632-36.48-23.68-80.64-35.52-131.84-35.52-35.84 0-67.84 5.76-97.28 17.28-28.8 11.52-53.12 27.84-73.6 49.024-19.84 21.248-35.2 46.464-46.080 76.032-10.88 29.44-16 62.080-16 97.28 0 34.56 5.76 65.92 17.28 95.36 11.52 30.080 27.52 55.040 48 76.8 21.12 21.76 45.44 38.4 74.24 51.2s60.16 18.56 95.36 18.56c39.040 0 72.32-7.040 101.76-22.4 28.8-14.72 52.48-35.2 71.040-60.16 19.2-24.96 32-53.76 40.32-86.4 8.32-32 10.88-65.92 8.96-101.76h-329.024c0-35.84 12.16-69.76 30.72-88.32zM286.72 246.208c13.632 0 26.624 1.28 38.848 3.968 12.416 2.56 23.424 7.040 32.64 12.8 9.344 5.76 17.024 14.080 22.592 24.96 5.568 10.24 8.32 24.32 8.32 40.96 0 32-9.152 55.040-27.328 69.12-18.24 13.44-42.496 20.48-72.32 20.48h-150.784v-173.44h148.032zM869.12 487.936c-14.976 16.512-40.192 25.408-70.912 25.408-20.032 0-36.608-3.2-49.92-10.24-12.928-6.4-23.552-14.72-31.68-24.96-8.064-10.24-13.568-20.48-16.768-32-3.2-10.88-5.12-21.12-5.76-30.080h203.84c-3.008 32-13.888 55.68-28.8 72.32zM279.040 514.368c24.576 0 44.928 5.76 60.992 17.664 16 11.648 23.68 30.848 23.68 57.28 0 14.72-2.56 26.752-7.68 36.16-5.376 9.408-12.48 16.768-21.376 21.888-8.96 5.376-19.2 9.088-30.72 11.072-11.52 2.24-23.68 3.2-35.84 3.2h-129.856v-147.2h140.8zM668.48 726.592h255.36v-62.208h-255.36v62.72z" />
<glyph unicode="&#xe901;" glyph-name="bitbucket" d="M512 960c-244.032 0-444.48-65.28-444.48-148.16 0-21.76 52.288-331.136 74.112-453.12 8.704-56.704 152.512-135.040 370.368-135.040s357.312 78.336 370.368 135.040c21.76 121.984 74.112 431.36 74.112 453.12-4.352 82.88-200.448 148.16-444.48 148.16zM512 323.84c-78.464 0-139.52 60.992-139.52 139.392 0 78.464 61.056 139.52 139.52 139.52s139.52-61.056 139.52-139.52c0-74.112-61.12-139.392-139.52-139.392zM512 768.256c-156.8 0-283.264 26.24-283.264 60.992 0 34.88 126.4 61.056 283.264 61.056 156.8 0 283.264-25.6 283.264-60.8 0-34.56-126.4-60.8-283.264-60.8zM830.080 241.024c-8.704 0-13.056-4.352-13.056-4.352s-108.928-87.168-305.024-87.168-305.024 87.168-305.024 87.168-8.704 4.352-13.056 4.352c-8.704 0-17.472-4.352-17.472-17.408v-4.352c17.472-91.52 30.528-156.928 30.528-165.632 13.056-65.28 143.744-117.632 300.672-117.632 156.8 0 287.616 52.288 300.672 117.632 0 8.704 13.056 74.112 30.464 165.632v4.352c4.352 8.704 0 17.408-8.704 17.408zM581.696 467.584c0-38.492-31.204-69.696-69.696-69.696s-69.696 31.204-69.696 69.696c0 38.492 31.204 69.696 69.696 69.696s69.696-31.204 69.696-69.696z" />
<glyph unicode="&#xe902;" glyph-name="codepen" d="M1023.232 611.648c-0.256 1.28-0.448 2.56-0.768 3.712l-0.64 2.112c-0.384 1.088-0.768 2.176-1.28 3.2-0.192 0.768-0.64 1.472-0.896 2.176l-1.472 2.88-1.28 2.048-1.92 2.56-1.92 1.92-2.56 1.92-1.92 1.28-2.56 1.92-1.92 1.28-0.64 0.64-467.136 313.024c-14.72 9.856-33.92 9.856-48.64 0l-473.472-315.84-1.6-1.728-2.176-2.368-1.536-1.92-1.92-2.56c-0.64-0.64-1.28-1.28-1.28-1.92l-1.92-2.56-0.64-2.56c-0.64-0.64-0.64-1.92-1.28-3.2l-0.64-1.92c-0.64-1.28-0.64-2.56-0.64-3.84v-1.92c-0.576-1.984-0.576-3.904-0.576-5.824v-312c0-1.92 0.128-3.84 0.384-5.76l0.448-1.92c0.192-1.28 0.384-2.56 0.832-3.712l0.64-2.112c0.384-1.152 0.64-2.24 1.152-3.2l0.96-2.112c0-0.64 0.64-1.92 1.28-2.56l1.28-1.92c0.64-0.64 1.28-1.92 1.92-2.56l1.28-1.92 1.92-1.92c0.64-0.64 0.64-1.28 1.28-1.28l2.56-1.92 1.92-1.28 0.64-0.64 467.84-312.32c7.040-5.12 16-7.040 24.32-7.040s16.64 2.56 24.32 7.68l473.664 314.304 1.92 1.664 2.24 2.368 1.536 1.92 1.92 2.56 1.28 2.048 1.28 2.944 0.64 2.304 1.28 3.2 0.64 1.92 1.28 3.2v320c0 1.92 0 3.84-0.64 5.76l-0.64 1.92zM512 343.936l-155.648 104.064 155.648 104.064 155.648-104.064-155.648-104.064zM467.968 628.48l-190.72-127.552-153.984 103.040 344.704 229.76v-205.248zM198.080 448l-110.080-73.6v147.2l110.080-73.6zM277.248 395.008l190.72-127.552v-205.44l-344.704 229.76 153.984 103.040zM555.968 267.456l190.72 127.36 154.048-103.040-344.768-229.76v204.8zM825.92 448l110.080 73.6v-147.2l-110.080 73.6zM746.752 500.928l-190.72 127.552v205.44l344.704-229.76-153.984-103.040z" />
<glyph unicode="&#xe903;" glyph-name="dribbble" d="M512-64c-282.24 0-512 229.76-512 512s229.76 512 512 512 512-229.76 512-512-229.76-512-512-512zM943.808 377.92c-14.976 4.736-135.36 40.64-272.448 18.688 57.216-157.184 80.512-285.184 84.992-311.808 98.112 66.368 167.936 171.52 187.52 293.12zM682.88 44.8c-6.528 38.4-32 172.032-93.44 331.52l-2.816-0.896c-246.656-85.952-335.104-257.024-343.040-273.024 74.112-57.92 167.296-92.416 268.416-92.416 60.608 0 118.4 12.416 170.88 34.752zM187.072 154.88c9.92 17.024 129.92 215.68 355.52 288.64 5.76 1.92 11.52 3.584 17.28 5.12-11.072 24.96-23.040 49.792-35.52 74.24-218.432-65.28-430.272-62.528-449.472-62.080l-0.192-13.312c0-112.32 42.56-214.912 112.384-292.48zM83.84 536.96c19.648-0.32 199.808-1.088 404.352 53.248-72.448 128.768-150.592 237.12-162.112 252.928-122.368-57.728-213.76-170.496-242.176-306.24zM409.6 872.448c12.032-16.192 91.52-124.352 163.072-256 155.52 58.24 221.44 146.752 229.248 157.952-77.248 68.672-178.816 110.336-289.92 110.336-35.2 0-69.568-4.224-102.4-12.16zM850.56 723.84c-9.28-12.416-82.56-106.368-244.224-172.416 10.24-20.8 19.84-41.984 28.992-63.36 3.2-7.488 6.4-15.040 9.408-22.528 145.536 18.304 290.112-11.008 304.512-14.080-0.96 103.232-37.76 198.016-98.752 272.448z" />
<glyph unicode="&#xe904;" glyph-name="dropbox" d="M301.248 924.16l-301.248-196.48 208.256-166.784 303.744 187.392-210.752 176zM0 393.984l301.248-196.672 210.752 175.808-303.744 187.712-208.256-166.848zM512 373.12l210.752-175.872 301.248 196.672-208.256 166.848-303.744-187.52zM1024 727.552l-301.248 196.608-210.752-175.808 303.744-187.52 208.256 166.72zM512.64 335.36l-211.392-175.36-90.496 59.008v-66.24l301.888-180.928 301.824 180.928v66.24l-90.432-59.072-211.392 175.424z" />
<glyph unicode="&#xe905;" glyph-name="facebook" d="M967.488 960h-910.976c-31.232 0-56.512-25.28-56.512-56.512v-910.976c0-31.232 25.28-56.512 56.512-56.512h490.432v396.544h-133.504v154.496h133.504v114.112c0 132.224 80.768 204.16 198.784 204.16 56.512 0 105.088-4.096 119.232-6.016v-138.24h-81.92c-64 0-76.48-30.72-76.48-75.52v-98.56h152.96l-19.84-154.88h-133.12v-396.096h260.928c31.232 0 56.512 25.28 56.512 56.512v910.976c0 31.232-25.28 56.512-56.512 56.512z" />
<glyph unicode="&#xe906;" glyph-name="github" d="M512 960c-282.88 0-512-229.248-512-512 0-226.24 146.688-418.112 350.080-485.76 25.6-4.8 35.008 11.008 35.008 24.64 0 12.16-0.448 44.352-0.64 87.040-142.464-30.912-172.48 68.672-172.48 68.672-23.296 59.136-56.96 74.88-56.96 74.88-46.4 31.744 3.584 31.104 3.584 31.104 51.392-3.584 78.4-52.736 78.4-52.736 45.696-78.272 119.872-55.68 149.12-42.56 4.608 33.088 17.792 55.68 32.448 68.48-113.728 12.8-233.216 56.832-233.216 252.992 0 55.872 19.84 101.568 52.672 137.408-5.76 12.928-23.040 64.96 4.48 135.488 0 0 42.88 13.76 140.8-52.48 40.96 11.392 84.48 17.024 128 17.28 43.52-0.256 87.040-5.888 128-17.28 97.28 66.24 140.16 52.48 140.16 52.48 27.52-70.528 10.24-122.56 5.12-135.488 32.64-35.84 52.48-81.536 52.48-137.408 0-196.672-119.68-240-233.6-252.608 17.92-15.36 34.56-46.72 34.56-94.72 0-68.48-0.64-123.52-0.64-140.16 0-13.44 8.96-29.44 35.2-24.32 204.864 67.136 351.424 259.136 351.424 485.056 0 282.752-229.248 512-512 512z" />
<glyph unicode="&#xe907;" glyph-name="gitlab" d="M1022.080 380.288l-57.28 176.384-113.6 349.44c-5.76 18.048-31.232 18.048-37.12 0l-113.536-349.312h-377.088l-113.536 349.312c-5.888 18.048-31.36 18.048-37.12 0.128l-113.664-349.44-57.216-176.512c-5.248-16 0.512-33.664 14.080-43.648l496-360.32 496 360.32c13.568 9.984 19.328 27.52 14.080 43.648z" />
<glyph unicode="&#xe908;" glyph-name="google-plus" d="M325.76 494.528v-111.68h184.96c-7.424-48-55.872-140.608-184.768-140.608-111.168 0-201.92 92.16-201.92 205.76s90.56 205.76 201.728 205.76c63.36 0 105.728-27.008 129.92-50.304l88.448 85.12c-56.768 53.12-130.368 85.12-218.24 85.12-180.288 0.064-325.888-145.856-325.888-325.696s145.664-325.76 325.76-325.76c188.16 0 312.832 132.16 312.832 318.336 0 21.376-2.304 37.76-5.12 53.952h-307.712zM1024 494.528h-93.12v93.12h-93.12v-93.12h-93.056v-93.056h93.12v-93.12h93.44v93.12h92.736z" />
<glyph unicode="&#xe909;" glyph-name="gulp" d="M646.912 130.56l27.136 46.336s-61.696-25.28-164.992-25.28c-103.296 0-164.096 24.32-164.096 24.32l30.4-50.56 10.752-159.36c0-17.28 56.192-30.72 125.44-30.72 69.376 0 125.568 13.44 125.568 30.72l9.792 163.84zM673.152 431.68c-32.832-1.92-49.28-38.592-65.792-77.12-6.080-14.080-26.88-74.24-40.512-66.816s17.664 56.832 26.432 86.208c-10.112-7.424-47.232-36.288-56.768-9.216-15.36-13.44-48.256-20.48-44.544 14.080-8.192-14.72-26.56-35.2-48.64-26.24-28.8 10.88 16.832 103.040 28.16 98.56 11.392-5.12-2.24-25.6-5.76-33.92-7.936-17.92-17.024-40.96-10.88-45.44 10.24-8.32 38.592 30.080 39.232 30.72 5.312 7.040 20.48 52.48 32.64 47.36 12.16-5.76-30.4-65.92-14.528-78.080 3.2-2.56 16.32 1.28 24.32 10.24 5.12 5.12 3.328 17.92 20.48 58.88 17.28 40.96 32.64 92.16 44.416 88.32s2.048-30.080-2.176-40.32c-19.84-46.080-54.208-121.6-38.016-115.84 16 5.76 24.32 5.76 40.32 24.32s14.72 49.28 25.6 48.64c10.24-0.64 8.96-10.88 6.4-17.92 10.24 11.52 49.28 37.12 58.24 12.16 10.88-29.44-55.68-72.32-39.040-69.76 16 1.92 42.24 18.56 53.76 33.92l30.72 277.76s-31.36-25.6-229.12-25.6-225.92 24.96-225.92 24.96l26.24-253.44c14.080 39.68 47.36 120.32 99.2 117.12 23.68-1.28 55.68-47.36 28.16-48.64-11.52-0.64-12.8 23.040-26.24 26.24-10.24 1.92-23.68-5.76-32.64-14.72-17.28-17.28-55.68-85.76-50.56-119.68 6.4-43.52 60.16 14.72 69.12 32 6.4 12.16 10.88 48.64 24.32 44.8 14.080-3.84-1.28-41.6-11.52-74.24-11.52-37.12-17.28-76.16-31.36-71.68s8.96 52.48 7.68 60.8c-13.44-12.8-37.76-43.52-69.76-28.16l16-158.080s43.52-33.92 174.080-33.92 176 33.92 176 33.92l20.48 183.040c-16.64-16.64-69.12-45.44-72.32-12.8-2.56 26.24 56.96 64 41.6 64.64zM741.184 933.184v1.28c2.56 3.84-1.92 12.16-10.24 18.56-8.256 7.040-17.28 10.24-20.224 6.4l-120.768-128-23.936-97.28c-17.984 0.64-35.968 0.64-54.016 0.64-127.232 0-230.4-14.72-230.4-32.64s103.168-32.64 230.4-32.64c127.232 0 230.4 14.464 230.4 32.384 0 13.184-55.936 24.512-136.32 29.632l20.736 81.28 113.664 119.68zM576.64 684.8s-22.4 0-26.112 3.456c-0.96 1.024-1.536 2.432-1.536 3.84 0 2.432 1.664 3.84 3.84 4.672l1.92-3.2c-0.896-0.256-1.28-0.64-1.408-0.96 0-1.792 13.44-3.008 23.68-2.88s22.72 1.024 22.784 2.752c0 0.512-0.96 1.024-2.56 1.408l1.92 3.072c2.688-0.832 4.992-2.432 4.992-5.12 0-4.736-6.016-5.504-9.856-6.016-4.608-0.64-17.6-1.024-17.6-1.024z" />
<glyph unicode="&#xe90a;" glyph-name="instagram" d="M512 960c-139.072 0-156.48-0.64-211.072-3.072-54.528-2.56-91.648-11.136-124.288-23.808-33.664-13.056-62.272-30.592-90.688-59.072-28.48-28.416-46.080-56.96-59.072-90.688-12.672-32.64-21.312-69.76-23.808-124.288-2.56-54.592-3.072-72-3.072-211.072s0.64-156.48 3.072-211.072c2.56-54.528 11.136-91.712 23.808-124.288 13.056-33.664 30.592-62.272 59.072-90.688 28.416-28.48 56.96-46.080 90.688-59.072 32.64-12.672 69.76-21.312 124.288-23.808 54.592-2.56 72-3.072 211.072-3.072s156.48 0.64 211.072 3.072c54.528 2.56 91.712 11.136 124.288 23.808 33.664 13.056 62.272 30.592 90.688 59.072 28.48 28.416 46.080 56.96 59.072 90.688 12.672 32.64 21.312 69.76 23.808 124.288 2.56 54.592 3.072 72 3.072 211.072s-0.64 156.48-3.072 211.072c-2.56 54.528-11.136 91.712-23.808 124.288-13.056 33.664-30.592 62.272-59.072 90.688-28.416 28.48-56.96 46.080-90.688 59.072-32.64 12.672-69.76 21.312-124.288 23.808-54.592 2.56-72 3.072-211.072 3.072zM512 867.84c136.704 0 152.96-0.64 206.912-3.072 49.92-2.304 76.992-10.624 95.040-17.664 23.936-9.28 40.96-20.352 58.88-38.272s28.992-34.944 38.272-58.88c7.040-18.048 15.36-45.12 17.664-95.040 2.432-54.016 3.008-70.208 3.008-206.912s-0.64-152.96-3.2-206.912c-2.56-49.92-10.88-76.992-17.92-95.040-9.6-23.936-20.48-40.96-38.4-58.88s-35.2-28.992-58.88-38.272c-17.92-7.040-45.44-15.36-95.36-17.664-54.4-2.432-70.4-3.008-207.36-3.008s-152.96 0.64-207.36 3.2c-49.92 2.56-77.44 10.88-95.36 17.92-24.32 9.6-40.96 20.48-58.88 38.4s-29.44 35.2-38.4 58.88c-7.040 17.92-15.36 45.44-17.92 95.36-1.92 53.76-2.56 70.4-2.56 206.72s0.64 152.96 2.56 207.36c2.56 49.92 10.88 77.44 17.92 95.36 8.96 24.32 20.48 40.96 38.4 58.88s34.56 29.44 58.88 38.4c17.92 7.040 44.8 15.36 94.72 17.92 54.4 1.92 70.4 2.56 207.36 2.56zM512 710.912c-145.28 0-262.912-117.76-262.912-262.912 0-145.28 117.76-262.912 262.912-262.912 145.28 0 262.912 117.76 262.912 262.912 0 145.28-117.76 262.912-262.912 262.912zM512 277.312c-94.272 0-170.688 76.416-170.688 170.688s76.416 170.688 170.688 170.688c94.272 0 170.688-76.416 170.688-170.688s-76.416-170.688-170.688-170.688zM846.72 721.28c0-33.92-27.52-61.44-61.44-61.44s-61.44 27.52-61.44 61.44 27.52 61.44 61.44 61.44 61.44-27.52 61.44-61.44z" />
<glyph unicode="&#xe90b;" glyph-name="kickstarter" d="M409.984 611.008l187.776 272.192c35.52 51.2 81.28 76.8 137.6 76.8 45.76 0 85.44-16.256 119.040-48.768 33.408-32.64 50.176-71.488 50.176-116.864 0-33.472-8.832-63.104-26.624-88.704l-169.28-246.144 207.040-262.528c20.672-26.112 31.040-56.704 31.040-91.712 0-46.336-16.256-86.080-48.832-119.36-32.512-33.28-71.936-49.92-118.272-49.92-50.752 0-89.472 16.512-116.096 49.536l-253.568 316.416v-174.464c0-49.792-8.64-88.512-25.92-116.096-31.424-50.24-76.864-75.392-137.024-75.392-54.72 0-97.152 18.56-127.168 55.424-28.16 34.048-42.24 79.168-42.24 135.296v647.040c0 53.12 14.336 97.024 42.88 131.52 29.76 36.48 71.168 54.72 123.968 54.72 50.304 0 92.16-18.24 125.696-54.72 18.688-20.224 30.528-40.64 35.456-61.44 3.008-12.8 4.48-36.608 4.48-71.68v-161.152z" />
<glyph unicode="&#xe90c;" glyph-name="linkedin" d="M872.448 87.36h-151.68v237.632c0 56.704-1.152 129.6-78.976 129.6-79.040 0-91.136-61.696-91.136-125.44v-241.792h-151.68v488.64h145.664v-66.56h1.92c20.352 38.4 69.888 78.912 143.808 78.912 153.6 0 182.080-101.12 182.080-232.768v-268.032zM227.712 642.88c-48.768 0-88.064 39.488-88.064 88.128 0 48.512 39.296 88 88.064 88 48.64 0 88.064-39.488 88.064-88 0-48.64-39.488-88.128-88.064-88.128zM303.744 87.36h-152.064v488.64h152.064v-488.64zM948.224 960h-872.704c-41.728 0-75.52-33.024-75.52-73.792v-876.416c0-40.768 33.792-73.792 75.52-73.792h872.64c41.728 0 75.84 33.024 75.84 73.792v876.416c0 40.768-34.112 73.792-75.84 73.792z" />
<glyph unicode="&#xe90d;" glyph-name="medium" d="M756.736 151.808l-17.664-28.8 226.688-113.28c9.6-4.864 18.816-7.040 26.752-7.040 17.792 0 29.888 11.328 29.888 31.488v549.312l-265.6-431.68zM1018.88 706.688c-0.256 0.192 0 0.64-0.192 0.768l-308.8 154.368c-3.84 1.92-7.872 2.432-11.968 2.816-1.024 0-1.92 0.64-3.008 0.64-11.776 0-23.552-5.888-29.888-16.256l-15.36-24.96-32-52.096-120.96-197.12 184.96-300.864 37.76-60.8 301.44 488.96c1.28 1.92 0.64 3.84-1.28 5.12zM617.6 255.808l-196.416 319.168-16 26.624v-311.488l276.48-138.432-64 104.064zM47.168 852.48l-9.408 4.608c-5.44 2.688-10.624 3.968-15.36 3.968-13.184 0-22.4-10.24-22.4-27.328v-650.368c0-17.408 12.8-38.016 28.288-45.824l265.28-133.12c6.848-3.84 13.312-5.12 19.2-5.12 16.448 0 28.032 12.8 28.032 33.92v670.144c0 1.28-0.768 2.56-1.92 3.008l-291.648 146.112z" />
<glyph unicode="&#xe90e;" glyph-name="meetup" d="M64 112c-35.328 0-64 28.672-64 64v544.384c0.256 35.2 28.8 63.616 64 63.616h896c35.2 0 63.744-28.48 64-63.616v-544.384c0-35.328-28.672-64-64-64h-896zM992.448 593.088h-960v-384h960v384z" />
<glyph unicode="&#xe90f;" glyph-name="pocket" d="M802.112 522.24l-240.832-231.040c-13.632-13.056-31.104-19.584-48.64-19.584-17.472 0-35.008 6.528-48.64 19.584l-240.768 231.040c-27.968 26.752-28.8 71.232-2.048 99.2 26.88 28.032 71.296 28.928 99.2 2.112l192.32-184.32 192.64 184.32c28.16 26.88 72.32 25.92 99.2-2.048 26.88-27.52 26.24-72.32-1.92-99.2zM1018.944 844.032c-12.8 36.608-48 61.184-87.040 61.184h-839.104c-38.4 0-73.216-24.064-86.848-59.904-4.032-10.624-6.080-21.76-6.080-32.96v-308.992l3.52-61.44c14.848-139.776 87.36-261.888 199.68-347.072 1.92-1.536 4.032-3.008 6.080-4.48l1.28-0.96c60.16-43.968 127.488-73.728 200.192-88.448 33.536-6.72 67.84-10.24 101.888-10.24 31.488 0 63.104 2.944 94.208 8.704 3.712 1.28 7.424 1.92 11.2 2.56 1.024 0 2.112 0.64 3.2 1.28 69.632 15.36 134.272 44.16 192.256 86.4l1.28 1.28 5.76 4.48c112 85.12 184.32 207.36 199.68 347.52l3.2 61.44v308.416c0 10.688-1.28 21.312-5.12 31.68z" />
<glyph unicode="&#xe910;" glyph-name="producthunt" d="M580.48 601.6h-145.28v-153.6h145.28c42.415 0 76.8 34.385 76.8 76.8s-34.385 76.8-76.8 76.8zM512 960c-282.77 0-512-229.23-512-512s229.23-512 512-512c282.77 0 512 229.23 512 512s-229.23 512-512 512zM580.48 345.6h-145.28v-153.6h-102.4v512h247.68c98.969 0 179.2-80.231 179.2-179.2s-80.231-179.2-179.2-179.2z" />
<glyph unicode="&#xe911;" glyph-name="reddit" d="M94.272 360.448c-2.56-11.84-3.84-23.936-3.84-36.224 0-147.2 188.16-267.072 419.456-267.072 231.232 0 419.392 119.808 419.392 267.072 0 11.712-1.28 23.296-3.52 34.56l-0.64 1.408c-0.832 2.304-1.28 4.672-1.28 7.040-12.8 50.176-47.68 95.808-98.112 132.608-1.92 0.64-3.712 1.664-5.376 3.008-1.088 0.832-1.92 1.792-2.816 2.752-76.672 52.736-186.24 85.76-307.648 85.76-120.32 0-228.864-32.384-305.408-84.16-0.64-0.768-1.28-1.472-2.112-2.112-1.664-1.408-3.584-2.56-5.568-3.2-51.52-36.864-87.296-82.752-100.608-133.504 0-2.432-0.64-4.928-1.6-7.296l-0.32-0.64zM512 127.808c-76.672 0-130.688 16.64-165.12 51.2-7.424 7.424-7.424 19.52 0 27.008 7.488 7.040 19.648 7.040 27.136 0 26.88-26.88 72-40.32 137.92-40.32s110.72 12.8 137.6 39.68c7.040 7.040 19.2 7.040 26.88 0 7.040-7.68 7.040-19.84 0-27.52-34.56-34.56-88.32-51.2-165.12-51.2zM357.888 451.52c-39.040 0-71.68-32.64-71.68-71.68 0-38.912 32.64-70.528 71.68-70.528s70.592 31.616 70.592 70.528c0 39.040-31.616 71.68-70.592 71.68zM667.008 451.52c-39.040 0-71.68-32.64-71.68-71.68 0-38.912 32.64-70.528 71.68-70.528s70.592 31.616 70.592 70.528c0 39.040-31.616 71.68-70.592 71.68zM861.44 519.68c44.352-35.584 76.928-77.824 93.568-124.16 19.2 14.4 30.72 36.992 30.72 61.952 0 42.88-34.88 77.696-77.696 77.696-17.088 0-33.28-5.568-46.592-15.552zM115.968 535.040c-42.88 0-77.696-34.88-77.696-77.696 0-23.232 10.24-44.8 27.52-59.328 17.152 46.080 50.048 87.68 94.592 122.88-12.928 8.96-28.352 14.080-44.416 14.080zM509.888 18.752c-252.416 0-457.728 136.96-457.728 305.28 0 11.712 1.024 23.232 2.944 34.56-33.92 21.12-55.040 58.24-55.040 98.88 0 64 52.48 115.968 116.48 115.968 28.8 0 55.68-10.496 76.8-29.12 79.36 50.944 186.24 83.008 304 85.12l77.44 236.16 17.28-4.032s0.64 0 0.64-0.128l180.48-42.432c14.72 34.112 48.64 58.112 88.32 58.112 52.48 0 95.36-42.88 95.36-95.488 0-52.672-42.88-95.488-95.36-95.488s-95.36 42.88-95.36 95.36l-164.544 38.976-62.72-191.36c113.28-4.48 215.68-36.48 292.48-86.4 21.12 19.84 48.896 30.72 78.4 30.72 64 0 116.096-51.84 116.096-115.84 0-42.24-23.040-80.64-58.88-101.12 1.28-10.88 2.56-21.12 2.56-32-0.64-168.32-205.44-305.28-458.24-305.28zM859.52 838.848c-31.616 0-57.28-25.6-57.28-57.216 0-31.552 25.6-57.216 57.216-57.216 31.36 0 56.96 25.6 56.96 56.96s-25.6 56.96-57.6 56.96z" />
<glyph unicode="&#xe912;" glyph-name="skype" d="M514.24 153.6c-171.84 0-248.64 84.608-248.64 148.032 0 32.64 23.936 55.36 56.96 55.36 73.6 0 54.4-105.792 191.68-105.792 70.144 0 108.992 38.208 108.992 77.312 0 23.552-11.52 49.6-57.856 61.056l-152.768 38.208c-123.072 30.912-145.408 97.664-145.408 160.256 0 130.176 122.24 179.072 237.056 179.072 105.6 0 230.4-58.624 230.4-136.704 0-33.472-29.44-52.928-62.080-52.928-62.72 0-51.2 87.040-177.92 87.040-62.72 0-97.92-28.416-97.92-69.12s49.28-53.76 92.16-63.552l112.64-25.088c123.52-27.712 154.88-100.224 154.88-168.512 0-105.728-81.28-184.704-244.48-184.704zM985.536 362.176l-1.28-5.76-1.92 10.24c0.64-1.92 1.92-3.2 2.56-5.12 5.12 28.8 7.68 58.24 7.68 87.68 0 65.28-12.8 128.64-38.4 188.8-24.32 57.6-59.52 109.44-103.68 153.6-44.8 44.16-96 79.36-153.6 103.68-56.256 26.944-119.616 39.744-184.896 39.744-30.72 0-61.696-3.008-91.52-8.768l5.12-2.56-10.24 1.472 5.12 1.024c-41.152 22.080-87.36 33.792-134.272 33.792-76.416 0-148.288-29.824-202.368-84.032s-83.84-126.272-83.84-202.88c0-48.832 12.48-96.768 36.032-139.2l0.832 5.312 1.792-10.24-2.56 4.928c-4.864-27.52-7.36-55.488-7.36-83.52 0-65.408 12.8-128.896 37.76-188.672 24.32-58.24 58.88-110.080 103.68-154.24 44.16-44.8 96-79.36 153.6-104.32 59.52-25.6 122.88-38.4 188.16-38.4 28.16 0 56.96 2.56 84.48 7.68l-5.12 2.56 10.24-1.92-5.76-1.28c42.88-24.32 90.88-37.12 140.8-37.12 76.16 0 147.84 29.44 202.24 83.84 53.76 53.76 83.84 126.080 83.84 202.88 0 48.64-12.8 96.64-36.48 139.52z" />
<glyph unicode="&#xe913;" glyph-name="slack" d="M421.504 490.88l44.16-131.648 136.768 45.824-44.16 131.2-136.768-46.080zM803.2 360.32l-66.368-22.208 23.040-68.672c9.28-27.776-5.76-57.856-33.536-67.2-6.4-1.92-12.16-2.88-18.56-2.688-21.76 0.64-41.6 14.464-49.28 36.224l-23.040 68.608-136.96-45.824 23.040-68.608c8.96-27.84-5.76-57.92-33.92-67.2-6.4-2.048-12.16-2.88-18.56-2.752-21.76 0.64-41.6 14.464-49.28 36.224l-23.040 69.12-66.56-22.4c-6.4-1.92-12.16-2.56-18.56-2.56-21.76 0.64-41.6 14.72-49.28 36.48-9.6 28.16 5.76 58.24 33.28 67.2l66.56 22.4-42.176 131.776-66.176-22.4c-6.016-2.048-12.16-2.88-18.24-2.752-21.12 0.64-41.6 14.4-48.64 36.16-8.96 27.712 5.76 57.792 33.92 67.2l66.56 22.144-23.040 68.48c-8.96 27.904 5.76 57.984 33.92 67.2 28.16 9.408 58.24-5.76 67.2-33.408l23.040-68.608 136.256 45.824-23.040 68.48c-8.96 27.52 5.76 57.6 33.664 67.2 27.84 8.96 57.984-5.76 67.2-33.792l23.040-69.12 66.368 21.76c27.776 9.344 57.856-5.76 67.2-33.28 9.28-27.904-5.76-57.984-33.472-67.2l-66.432-22.4 44.16-131.648 66.176 22.016c27.84 8.96 57.92-5.76 67.2-33.92 9.344-28.16-5.76-58.24-33.28-67.2zM981.12 588.8c-105.6 351.744-258.048 433.92-609.92 328.32-351.744-105.6-433.92-257.92-328.32-609.92 105.6-351.808 257.92-433.92 609.92-328.32 351.808 105.6 433.92 257.92 328.32 609.92z" />
<glyph unicode="&#xe914;" glyph-name="stackoverflow" d="M810.112 27.072v273.28h91.072v-364.352h-822.464v364.352h90.88v-273.28h640.384zM260.8 118.144h458.24v91.136h-458.24v-91.136zM271.872 325.184l447.168-93.44 19.2 88.32-447.040 93.376-19.328-88.32zM329.856 540.864l414.080-193.28 38.528 83.2-414.080 193.28-38.528-82.56zM445.696 745.024l350.592-292.48 57.984 69.12-350.592 292.416-57.6-68.992zM672.128 960l-74.496-55.232 273.28-367.040 74.496 55.168-273.408 367.104z" />
<glyph unicode="&#xe915;" glyph-name="trello" d="M128 960h768c70.656 0 128-57.28 128-128v-768c0-70.656-57.28-128-128-128h-768c-70.656 0-128 57.28-128 128v768c0 70.656 57.28 128 128 128zM640 826.88c-33.92 0-61.44-27.52-61.44-61.44v-325.12c0-33.92 27.52-61.44 61.44-61.44h189.44c33.92 0 61.44 27.52 61.44 61.44v325.12c0 33.92-27.52 61.44-61.44 61.44h-189.44zM194.56 826.88c-33.92 0-61.44-27.52-61.44-61.44v-581.12c0-33.92 27.52-61.44 61.44-61.44h189.44c33.92 0 61.44 27.52 61.44 61.44v581.12c0 33.92-27.52 61.44-61.44 61.44h-189.44z" />
<glyph unicode="&#xe916;" glyph-name="tumblr" d="M621.312-64c-217.344 0-299.968 160.256-299.968 273.536v334.592h-103.104v132.224c154.88 56 192.512 196.096 200.96 275.968 0.64 5.504 4.928 7.68 7.36 7.68h150.080v-260.864h204.8v-155.008h-205.632v-318.72c0.64-42.688 16-101.12 94.208-101.12h3.84c26.88 0.768 63.36 8.704 82.56 17.792l49.28-146.112c-18.56-27.136-102.4-58.624-177.28-59.904h-7.616z" />
<glyph unicode="&#xe917;" glyph-name="twitter" d="M1024 765.568c-37.76-16.64-78.080-27.968-120.64-33.088 43.328 26.048 76.672 67.2 92.352 116.224-40.576-23.68-85.568-40.96-133.44-50.56-38.272 40.96-92.8 66.56-153.344 66.56-115.968 0-210.048-94.080-210.048-209.92 0-16.64 1.92-32.64 5.44-48-174.592 8.32-329.408 92.16-433.024 218.88-18.176-30.784-28.416-66.624-28.416-105.664 0-72.96 37.12-137.152 93.44-174.848-34.432 1.088-66.88 10.56-95.168 26.24v-2.56c0-101.76 72.32-186.752 168.512-206.080-17.664-4.736-36.224-7.296-55.36-7.296-13.44 0-26.24 1.28-39.040 3.712 26.88-83.456 104.32-144.192 196.48-145.92-71.68-56.32-162.56-89.856-260.48-89.856-16.64 0-33.28 0.96-49.92 2.88 93.44-59.52 203.52-94.336 322.56-94.336 386.56 0 597.76 320 597.76 597.12 0 8.96 0 17.92-0.64 26.88 40.96 29.44 76.8 66.56 104.96 108.8z" />
<glyph unicode="&#xe918;" glyph-name="youtube" d="M0 489.92v-80.64c0-82.88 10.24-165.76 10.24-165.76s9.984-70.4 40.704-101.568c38.912-40.768 90.112-39.488 112.896-43.776 81.92-7.872 348.16-10.24 348.16-10.24s215.168 0.256 358.4 10.624c20.096 2.432 63.744 2.56 102.656 43.392 30.72 31.104 40.704 101.632 40.704 101.632s10.24 82.816 10.24 165.76v80.512c0 82.944-10.24 165.76-10.24 165.76s-9.984 70.528-40.704 101.632c-38.912 40.832-82.56 40.96-102.656 43.392-143.232 10.368-358.4 10.624-358.4 10.624s-266.24-2.304-348.16-10.24c-22.784-4.288-73.984-3.008-112.896-43.776-30.72-31.168-40.704-101.568-40.704-101.568s-10.24-82.944-10.24-165.76zM406.272 315.2v287.68l276.672-144.32-276.48-143.36z" />
<glyph unicode="&#xe919;" glyph-name="arrow-down" d="M798.133 371.467c-16.533 16.533-43.733 16.533-60.267 0l-183.2-183.2v579.733c0 23.467-19.2 42.667-42.667 42.667s-42.667-19.2-42.667-42.667v-579.733l-183.2 183.2c-16.533 16.533-43.733 16.533-60.267 0s-16.533-43.733 0-60.267l256-256c0.533-0.533 1.067-1.067 1.6-1.6 0 0 0 0 0 0s0.267-0.267 0.267-0.267c0 0 0 0 0.267-0.267 0 0 0 0 0.267-0.267 0 0 0.267-0.267 0.267-0.267s0 0 0 0 0.267-0.267 0.267-0.267c0 0 0 0 0 0 3.2-2.667 6.4-4.533 9.867-6.133 0 0 0 0 0.267 0 0 0 0 0 0.267 0 4.533-1.867 9.6-3.2 14.933-3.467 0 0 0 0 0 0 0.267 0 0.267 0 0.533 0 0 0 0 0 0 0s0.267 0 0.267 0c0 0 0.267 0 0.267 0s0.267 0 0.267 0 0.267 0 0.533 0 0.267 0 0.533 0c0 0 0.267 0 0.267 0s0.267 0 0.267 0c0 0 0.267 0 0.267 0s0 0 0 0c0.267 0 0.267 0 0.533 0 0 0 0 0 0 0 5.333 0.267 10.4 1.333 14.933 3.467 0 0 0 0 0 0s0.267 0 0.267 0c0 0 0.267 0 0.267 0s0 0 0 0c3.2 1.333 6.133 3.2 9.067 5.6 0 0 0 0 0 0s0.267 0.267 0.267 0.267c0 0 0 0 0 0s0.267 0.267 0.267 0.267c0 0 0 0 0.267 0.267 0 0 0 0 0.267 0.267 0 0 0.267 0.267 0.267 0.267s0 0 0 0c0.8 0.533 1.333 1.333 2.133 2.133l255.733 255.733c17.333 16.8 17.333 44 0.533 60.533z" />
<glyph unicode="&#xe91a;" glyph-name="arrow-left" d="M853.333 469.334h-579.733l183.2 183.2c16.533 16.533 16.533 43.733 0 60.267s-43.733 16.533-60.267 0l-256-256c-0.533-0.533-0.8-0.8-1.333-1.333 0 0 0 0 0 0s-0.267-0.267-0.267-0.267c0 0-0.267-0.267-0.267-0.267s0 0 0-0.267c0 0-0.267-0.267-0.267-0.267v0c-2.933-3.2-5.067-6.933-6.933-10.667 0 0 0 0 0 0s0-0.267 0-0.267c0 0 0-0.267 0-0.267s0 0 0 0c-2.133-5.067-3.2-10.667-3.2-16.533s1.067-11.467 3.2-16.533c0 0 0 0 0 0s0-0.267 0.267-0.267c0 0 0 0 0-0.267 0 0 0 0 0-0.267 1.6-3.733 3.733-7.2 6.4-10.4 0 0 0 0 0 0s0.267-0.267 0.267-0.267c0 0 0 0 0.267-0.267 0 0 0 0 0.267-0.267 0 0 0.267-0.267 0.267-0.267s0 0 0 0c0.533-0.533 1.067-1.067 1.6-1.6l256-256c8.267-8.267 19.2-12.533 30.133-12.533s21.867 4.267 30.133 12.533c16.533 16.533 16.533 43.733 0 60.267l-183.467 183.467h579.733c23.467 0 42.667 19.2 42.667 42.667s-19.2 42.667-42.667 42.667z" />
<glyph unicode="&#xe91b;" glyph-name="arrow-right" d="M885.067 398.134c0 0 0 0 0 0 0.267 0.267 0.267 0.267 0.267 0.267s0 0 0 0 0.267 0.267 0.267 0.267c0 0 0.267 0.267 0.267 0.267s0 0 0 0 0.267 0.267 0.267 0.267c0 0 0 0 0 0 2.667 3.2 4.8 6.667 6.4 10.4 0 0 0 0 0 0.267 0 0 0 0.267 0 0.267s0 0.267 0 0.267c0 0 0 0 0 0 1.6 4 2.667 8.267 2.933 12.8 0 0 0 0 0 0s0 0.267 0 0.267c0 0 0 0.267 0 0.267s0 0.267 0 0.267c0 0 0 0.267 0 0.267s0 0 0 0.267c0 1.067 0 2.133 0 3.2 0 0 0 0 0 0.267 0 0 0 0.267 0 0.267s0 0.267 0 0.267c0 0 0 0.267 0 0.267s0 0.267 0 0.267c0 0 0 0 0 0-0.267 4.533-1.333 8.8-2.933 12.8 0 0 0 0 0 0.267 0 0 0 0 0 0.267 0 0 0 0.267-0.267 0.267 0 0 0 0 0 0-1.6 4-4 7.467-6.667 10.933 0 0 0 0 0 0s-0.267 0.267-0.267 0.267c0 0 0 0 0 0s-0.267 0.267-0.267 0.267-0.267 0.267-0.267 0.267 0 0 0 0.267c-0.533 0.533-1.067 1.067-1.6 1.6l-256 256c-16.533 16.533-43.733 16.533-60.267 0s-16.533-43.733 0-60.267l183.2-183.2h-579.467c-23.467 0-42.667-19.2-42.667-42.667s19.2-42.667 42.667-42.667h579.733l-183.2-183.2c-16.533-16.533-16.533-43.733 0-60.267 8.267-8.267 19.2-12.533 30.133-12.533s21.867 4.267 30.133 12.533l255.733 255.733c0.8 1.067 1.333 1.867 1.867 2.4z" />
<glyph unicode="&#xe91c;" glyph-name="arrow-up" d="M798.133 542.134l-256 256c-0.533 0.533-1.067 1.067-1.6 1.6 0 0 0 0-0.267 0 0 0-0.267 0.267-0.267 0.267s-0.267 0-0.267 0.267c0 0 0 0-0.267 0 0 0-0.267 0.267-0.267 0.267s0 0 0 0c-3.2 2.933-6.933 5.067-10.933 6.667 0 0 0 0 0 0s-0.267 0-0.267 0c0 0 0 0-0.267 0 0 0 0 0-0.267 0-4 1.6-8.267 2.667-12.8 2.933 0 0 0 0 0 0s-0.267 0-0.267 0c0 0-0.267 0-0.267 0s-0.267 0-0.267 0c0 0-0.267 0-0.267 0s0 0-0.267 0c-1.067 0-2.133 0-3.2 0 0 0 0 0-0.267 0 0 0-0.267 0-0.267 0s-0.267 0-0.267 0c0 0-0.267 0-0.267 0s-0.267 0-0.267 0c0 0 0 0 0 0-4.267-0.267-8.533-1.333-12.533-2.933 0 0 0 0 0 0s-0.267 0-0.267 0c0 0-0.267 0-0.267 0s0 0 0 0c-4.267-1.6-8-4-11.733-7.2 0 0 0 0 0 0s-0.267-0.267-0.267-0.267c0 0 0 0 0 0s-0.267-0.267-0.267-0.267c0 0-0.267-0.267-0.267-0.267s0 0 0 0c-0.533-0.267-0.8-0.8-1.333-1.333l-256-256c-16.533-16.533-16.533-43.733 0-60.267s43.733-16.533 60.267 0l183.2 183.2v-579.467c0-23.467 19.2-42.667 42.667-42.667s42.667 19.2 42.667 42.667v579.733l183.2-183.2c8.267-8.267 19.2-12.533 30.133-12.533s21.867 4.267 30.133 12.533c16.8 16.533 16.8 43.733 0 60.267z" />
<glyph unicode="&#xe91d;" glyph-name="chevron-down" d="M798.133 584.8c-16.533 16.533-43.733 16.533-60.267 0l-225.867-225.867-225.867 225.867c-16.533 16.533-43.733 16.533-60.267 0s-16.533-43.733 0-60.267l256-256c8.267-8.267 19.2-12.533 30.133-12.533s21.867 4.267 30.133 12.533l256 256c16.8 16.533 16.8 43.733 0 60.267z" />
<glyph unicode="&#xe91e;" glyph-name="chevron-left" d="M444.267 426.667l225.867 225.867c16.533 16.533 16.533 43.733 0 60.267s-43.733 16.533-60.267 0l-256-256c-16.533-16.533-16.533-43.733 0-60.267l256-256c8.267-8.267 19.2-12.533 30.133-12.533s21.867 4.267 30.133 12.533c16.533 16.533 16.533 43.733 0 60.267l-225.867 225.867z" />
<glyph unicode="&#xe91f;" glyph-name="chevron-right" d="M670.133 456.8l-256 256c-16.533 16.533-43.733 16.533-60.267 0s-16.533-43.733 0-60.267l225.867-225.867-225.867-225.867c-16.533-16.533-16.533-43.733 0-60.267 8.267-8.267 19.2-12.533 30.133-12.533s21.867 4.267 30.133 12.533l256 256c16.8 16.533 16.8 43.733 0 60.267z" />
<glyph unicode="&#xe920;" glyph-name="chevron-up" d="M798.133 328.8l-256 256c-16.533 16.533-43.733 16.533-60.267 0l-256-256c-16.533-16.533-16.533-43.733 0-60.267s43.733-16.533 60.267 0l225.867 225.867 225.867-225.867c8.267-8.267 19.2-12.533 30.133-12.533s21.867 4.267 30.133 12.533c16.8 16.533 16.8 43.733 0 60.267z" />
<glyph unicode="&#xe921;" glyph-name="home" d="M922.133 588.267l-384 298.667c-15.467 12-37.067 12-52.267 0l-384-298.667c-10.4-8-16.533-20.533-16.533-33.6v-469.333c0-70.667 57.333-128 128-128h597.333c70.667 0 128 57.333 128 128v469.333c0 13.067-6.133 25.6-16.533 33.6zM597.333 42.667h-170.667v341.333h170.667v-341.333zM853.333 85.334c0-23.467-19.2-42.667-42.667-42.667h-128v384c0 23.467-19.2 42.667-42.667 42.667h-256c-23.467 0-42.667-19.2-42.667-42.667v-384h-128c-23.467 0-42.667 19.2-42.667 42.667v448.533l341.333 265.6 341.333-265.6v-448.533z" />
<glyph unicode="&#xe922;" glyph-name="maximize" d="M938.667 812.267c0 0 0 0 0 0 0 0.267 0 0.267 0 0.533 0 0 0 0.267 0 0.267s0 0.267 0 0.267c0 0 0 0.267 0 0.267s0 0 0 0c-0.267 4.533-1.333 8.8-2.933 12.8 0 0 0 0 0 0.267 0 0 0 0 0 0.267 0 0 0 0.267-0.267 0.267 0 0 0 0 0 0-1.6 4-4 7.467-6.667 10.933 0 0 0 0 0 0s-0.267 0.267-0.267 0.267c0 0 0 0 0 0s-0.267 0.267-0.267 0.267-0.267 0.267-0.267 0.267 0 0 0 0.267c-1.067 1.067-1.867 2.133-2.933 2.933 0 0 0 0-0.267 0 0 0-0.267 0.267-0.267 0.267s-0.267 0-0.267 0.267c0 0 0 0-0.267 0 0 0-0.267 0.267-0.267 0.267s0 0 0 0c-3.2 2.933-6.933 5.067-10.933 6.667 0 0 0 0 0 0s-0.267 0-0.267 0c0 0 0 0-0.267 0 0 0 0 0-0.267 0-4 1.6-8.267 2.667-12.8 2.933 0 0 0 0 0 0s-0.267 0-0.267 0c0 0-0.267 0-0.267 0s-0.267 0-0.267 0c0 0-0.267 0-0.267 0s0 0-0.267 0c-0.533 0-1.067 0-1.6 0h-256c-23.467 0-42.667-19.2-42.667-42.667s19.2-42.667 42.667-42.667h153.067l-225.867-225.867c-16.533-16.533-16.533-43.733 0-60.267 8.267-8.267 19.2-12.533 30.133-12.533s21.867 4.267 30.133 12.533l225.6 226.667v-153.067c0-23.467 19.2-42.667 42.667-42.667s42.667 19.2 42.667 42.667v256c0 0.533 0 1.067 0 1.6zM396.533 371.467l-225.867-225.867v153.067c0 23.467-19.2 42.667-42.667 42.667s-42.667-19.2-42.667-42.667v-256c0-5.867 1.067-11.467 3.2-16.533 0 0 0 0 0 0s0-0.267 0.267-0.267c0 0 0 0 0-0.267 0 0 0 0 0-0.267 1.6-3.733 3.733-7.2 6.4-10.4 0 0 0 0 0 0s0.267-0.267 0.267-0.267c0 0 0 0 0.267-0.267 0 0 0 0 0.267-0.267 0 0 0.267-0.267 0.267-0.267s0 0 0 0c1.067-1.067 1.867-2.133 2.933-2.933 0 0 0 0 0 0s0.267-0.267 0.267-0.267c0 0 0 0 0.267-0.267 0 0 0 0 0.267-0.267 0 0 0.267-0.267 0.267-0.267s0 0 0 0 0.267-0.267 0.267-0.267c0 0 0 0 0 0 3.2-2.667 6.4-4.533 9.867-6.133 0 0 0 0 0.267 0 0 0 0 0 0.267 0 4.533-1.867 9.6-3.2 14.933-3.467 0 0 0 0 0 0 0.267 0 0.267 0 0.533 0 0 0 0 0 0 0s0.267 0 0.267 0c0 0 0.267 0 0.267 0s0.267 0 0.267 0 0.267 0 0.533 0h256c23.467 0 42.667 19.2 42.667 42.667s-19.2 42.667-42.667 42.667h-152.8l225.867 225.867c16.533 16.533 16.533 43.733 0 60.267-16.533 16.8-43.733 16.8-60.267 0z" />
<glyph unicode="&#xe923;" glyph-name="x" d="M572.267 426.667l225.867 225.867c16.533 16.533 16.533 43.733 0 60.267s-43.733 16.533-60.267 0l-225.867-225.867-225.867 225.867c-16.533 16.533-43.733 16.533-60.267 0s-16.533-43.733 0-60.267l225.867-225.867-225.867-225.867c-16.533-16.533-16.533-43.733 0-60.267 8.267-8.267 19.2-12.533 30.133-12.533s21.867 4.267 30.133 12.533l225.867 225.867 225.867-225.867c8.267-8.267 19.2-12.533 30.133-12.533s21.867 4.267 30.133 12.533c16.533 16.533 16.533 43.733 0 60.267l-225.867 225.867z" />
<glyph unicode="&#xe924;" glyph-name="gitter" d="M8.501 4.001H10.5V24H8.501V4.001zm6.999 0V24h-2V4.001h2zM3.5 0h2.001v15H3.5V0zm15 4.001h2V15h-2V4.001z" />

</font>
</defs>
</svg>
